The Debian User Group in Vienna

Text archives Help


[Debienna] DRM-geschützte .m4p-files unter Debian abspielen


Chronological Thread 
  • From: Al T <al.t AT disroot.org>
  • To: debienna AT lists.debienna.at
  • Subject: [Debienna] DRM-geschützte .m4p-files unter Debian abspielen
  • Date: Wed, 24 Jun 2020 16:52:30 +0200
  • Authentication-results: mail.cosmopool.net; dkim=pass reason="2048-bit key; insecure key" header.d=disroot.org header.i=@disroot.org header.b=Q7ueKTK0; dkim-adsp=pass; dkim-atps=neutral

Liebe Debienna!


Ich besitze aus einem früheren Leben etliche .m4p-Dateien
(DRM-geschützte .m4a-Dateien). Heute wollte ich diese in ein
vernünftiges Dateiformat umwandeln, bin allerdings daran gescheitert.


Was mich noch mehr stört, ist, dass ich nicht einmal in der Lage war,
diese Dateien überhaupt abzuspielen. Mit den folgenden Tools bin ich
gescheitert:

ffplay (ffmpeg)
play (sox)
cmus
audacity
mpv
mplayer
vlc
firefox
chromium


Irgendwelche Ideen?


Der ffprobe-Auszug zur Datei lautet wie folgt:


ffprobe -hide_banner FILENAME.m4p
[mov,mp4,m4a,3gp,3g2,mj2 @ 0x5630a8bec000] ignoring 'frma' atom of 'mp4a',
stream format is 'drms'
[mov,mp4,m4a,3gp,3g2,mj2 @ 0x5630a8bec000] stream 0, timescale not set
[aac @ 0x5630a8bedc80] Reserved bit set.
[aac @ 0x5630a8bedc80] Number of bands (49) exceeds limit (46).
Input #0, mov,mp4,m4a,3gp,3g2,mj2, from 'FILENAME.m4p':
Metadata:
major_brand : M4A
minor_version : 0
compatible_brands: M4A mp42isom
creation_time : [... long ago ...]
tool : ?
iTunNORM : [... stuff ...]
title : [... stuff ...]
artist : [... stuff ...]
album : [... stuff ...]
genre : [... stuff ...]
track : [... stuff ...]
disc : [... stuff ...]
date : [... stuff ...]
account_id : [... stuff ...]
copyright : [... stuff ...]
rating : [... stuff ...]
album_artist : [... stuff ...]
account_type : [... stuff ...]
media_type : [... stuff ...]
purchase_date : [... long ago ...]
Duration: 00:02:56.96, start: 0.000000, bitrate: 151 kb/s
Stream #0:0(eng): Audio: aac (LC) (drms / 0xBADC0FFE), 44100 Hz,
stereo, fltp, 125 kb/s (default)
Metadata:
creation_time : [... long ago ...]
handler_name : Apple Sound Media Handler
Stream #0:1: Video: mjpeg, yuvj444p(pc, bt470bg/unknown/unknown),
600x600 [SAR 72:72 DAR 1:1], 90k tbr, 90k tbn, 90k tbc


  • [Debienna] DRM-geschützte .m4p-files unter Debian abspielen, Al T, 06/24/2020

Archive powered by MHonArc 2.6.18.

Top of page